The Diabolical 2015 Unrated 1080p WEB-DL DD5 1 H 264 HKD



Useful link:

MediaInfo:
General
Complete name : The.Diabolical.2015.Unrated.1080p.WEB-DL.DD5.1.H.264.HKD.mkv
Format : Matroska
Format version : Version 4 / Version 2
File size : 2.95 GiB
Duration : 1h 26mn
Overall bit rate : 4 884 Kbps
Movie name : ripped by CrazyHDSource.com

Video
ID : 1
Format : AVC
Format/Info : Advanced Video Codec
Format profile : High@L4
Format settings, CABAC : Yes
Format settings, ReFrames : 5 frames
Codec ID : V_MPEG4/ISO/AVC
Duration : 1h 26mn
Bit rate : 4 403 Kbps
Width : 1 916 pixels
Height : 796 pixels
Display aspect ratio : 2.40:1
Frame rate mode : Constant
Frame rate : 23.976 fps
Color space : YUV
Chroma subsampling : 4:2:0
Bit depth : 8 bits
Scan type : Progressive
Bits/(Pixel*Frame) : 0.120
Stream size : 2.66 GiB (90%)
Title : ripped by CrazyHDSource.com
Language : English
Default : Yes
Forced : No
Color range : Limited
Color primaries : BT.709
Transfer characteristics : BT.709
Matrix coefficients : BT.709

Audio
ID : 2
Format : AC-3
Format/Info : Audio Coding 3
Mode extension : CM (complete main)
Format settings, Endianness : Big
Codec ID : A_AC3
Duration : 1h 26mn
Bit rate mode : Constant
Bit rate : 384 Kbps
Channel(s) : 6 channels
Channel positions : Front: L C R, Side: L R, LFE
Sampling rate : 48.0 KHz
Compression mode : Lossy
Stream size : 237 MiB (8%)
Language : English
Default : Yes
Forced : No

Menu
00:00:00.000 : en:ot again.
00:06:47.000 : en:Finding Something
00:12:09.000 : en:think he’s nice.
00:15:22.000 : en:In the Kitchen
00:18:48.000 : en:Angry Jacob
00:24:28.000 : en:Someone is Home
00:30:45.000 : en:No Leaving
00:36:15.000 : en:House Call
00:38:51.000 : en:Sick Children
00:48:08.000 : en:one believes me.
00:53:15.000 : en:Big Disturbance
00:57:58.000 : en:Aftermath
01:03:19.000 : en:CamSET Labs
01:08:00.000 : en:Traps are SET
01:17:09.000 : en:Future
01:21:55.000 : en:Credits

Screenshot:

Sign up via clicking banner and a file link to creat a premium account.Then Get the access to protected links.

ExtMatrix Download Links

Click Here for downloading links The Diabolical 2015 Unrated 1080p WEB-DL DD5 1 H 264 HKD

Leave a Reply