Useful link:

MediaInfo:
General
Complete name : The.Fault.in.Our.Stars.2014.EXTENDED.720p.WEB-DL.H264.AC3-FAS.mkv
Format : Matroska
Format version : Version 4 / Version 2
File size : 4.16 GiB
Duration : 2h 13mn
Overall bit rate : 4 469 Kbps

Video
ID : 1
Format : AVC
Format/Info : Advanced Video Codec
Format profile : High@L3.1
Format settings, CABAC : No
Format settings, ReFrames : 2 frames
Codec ID : V_MPEG4/ISO/AVC
Duration : 2h 13mn
Bit rate : 3 996 Kbps
Width : 1 280 pixels
Height : 688 pixels
Display aspect ratio : 1.85:1
Frame rate mode : Constant
Frame rate : 23.976 fps
Color space : YUV
Chroma subsampling : 4:2:0
Bit depth : 8 bits
Scan type : Progressive
Bits/(Pixel*Frame) : 0.189
Stream size : 3.72 GiB (89%)
Language : English
Default : Yes
Forced : No
Color primaries : BT.709
Transfer characteristics : BT.709
Matrix coefficients : BT.709

Audio
ID : 2
Format : AC-3
Format/Info : Audio Coding 3
Mode extension : CM (complete main)
Format settings, Endianness : Big
Codec ID : A_AC3
Duration : 2h 13mn
Bit rate mode : Constant
Bit rate : 384 Kbps
Channel(s) : 6 channels
Channel positions : Front: L C R, Side: L R, LFE
Sampling rate : 48.0 KHz
Bit depth : 16 bits
Compression mode : Lossy
Stream size : 366 MiB (9%)
Language : English
Default : Yes
Forced : No

Menu
00:00:00.000 : en:1
00:02:34.000 : en:2
00:06:25.000 : en:3
00:13:01.000 : en:4
00:15:06.000 : en:5
00:18:11.000 : en:6
00:21:04.000 : en:7
00:24:58.000 : en:8
00:28:33.000 : en:9
00:31:28.000 : en:10
00:38:10.000 : en:11
00:41:48.000 : en:12
00:49:16.000 : en:13
00:56:38.000 : en:14
01:02:23.000 : en:15
01:05:37.000 : en:16
01:08:13.000 : en:17
01:14:53.000 : en:18
01:20:53.000 : en:19
01:25:25.000 : en:20
01:28:58.000 : en:21
01:34:44.000 : en:22
01:43:52.000 : en:23
01:46:20.000 : en:24
01:52:11.000 : en:25
01:57:18.000 : en:26
02:01:02.000 : en:27
02:06:08.000 : en:28

Screenshot:

Sign up via clicking banner and a file link to creat a premium account.Then Get the access to protected links.

ExtMatrix Download Links

The.Fault.in.Our.Stars.2014.EXTENDED.720p.WEB-DL.H264.AC3-FAS.mkv