Useful link:

IMDB

TVRAGE

TVDB

MediaInfo:
General
Complete name : F.S01.E01.mp4
Format : MPEG-4
Format profile : Base Media / Version 2
Codec ID : mp42
File size : 553 MiB
Duration : 46mn 50s
Overall bit rate mode : Variable
Overall bit rate : 1 651 Kbps

Video
ID : 1
Format : AVC
Format/Info : Advanced Video Codec
Format profile : Main@L4.0
Format settings, CABAC : Yes
Format settings, ReFrames : 4 frames
Codec ID : avc1
Codec ID/Info : Advanced Video Coding
Duration : 46mn 50s
Bit rate mode : Variable
Bit rate : 1 486 Kbps
Width : 720 pixels
Height : 482 pixels
Display aspect ratio : 16:9
Original display aspect ratio : 16:9
Frame rate mode : Variable
Frame rate : 29.970 fps
Minimum frame rate : 9.990 fps
Maximum frame rate : 29.970 fps
Color space : YUV
Chroma subsampling : 4:2:0
Bit depth : 8 bits
Scan type : Progressive
Bits/(Pixel*Frame) : 0.143
Stream size : 498 MiB (90%)
Writing library : x264 core 130 r2273 b3065e6
Encoding settings : cabac=1 / ref=1 / deblock=1:0:0 / analyse=0x1:0x111 / me=hex / subme=2 / psy=1 /

Audio
ID : 2
Format : AAC
Format/Info : Advanced Audio Codec
Format profile : LC
Codec ID : 40
Duration : 46mn 50s
Bit rate mode : Variable
Bit rate : 160 Kbps
Maximum bit rate : 214 Kbps
Channel(s) : 2 channels
Channel positions : Front: L R
Sampling rate : 48.0 KHz
Compression mode : Lossy
Delay relative to video : 133ms
Stream size : 53.6 MiB (10%)
Language : English
Encoded date : UTC 2014-06-24 05:51:47
Tagged date : UTC 2014-06-24 05:58:53

Text
ID : 3
Format : Apple text
Codec ID : text
Duration : 46mn 50s
Bit rate : 0 bps
Stream size : 23.0 Bytes (0%)
Encoded date : UTC 2014-06-24 05:51:47
Tagged date : UTC 2014-06-24 05:58:53

Screenshot:

Sign up via clicking banner and a file link to creat a premium account.Then Get the access to protected links.

ExtMatrix Download Links

F.S01.E01.mp4
The.Flash.2014.S01E01.Pilot.1080p.WEB-DL.DD5.1.AAC2.0.H.264-YFN.mkv
The.Flash.2014.S01E02.Fastest.Man.Alive.1080p.WEB-DL.DD5.1.AAC2.0.H.264-YFN.mkv
The.Flash.2014.S01E03.Things.You.Can.t.Outrun.1080p.WEB-DL.DD5.1.H.264-NTb.mkv
The.Flash.2014.S01E08.Flash.vs.Arrow.1080p.WEB-DL.DD5.1.AAC2.0.H.264-YFN.mkv
The.Flash.2014.S01E09.The.Man.in.the.Yellow.Suit.1080p.WEB-DL.DD5.1.AAC2.0.H.264-YFN.mkv
The.Flash.2014.S01E10.Revenge.of.the.Rogues.1080p.WEB-DL.DD5.1.AAC2.0.H.264-YFN.mkv
The.Flash.2014.S01E11.The.Sound.and.the.Fury.1080p.WEB-DL.DD5.1.AAC2.0.H.264-YFN.mkv

Click Here for downloading links The Flash 2014 S01E04 1080p WEB-DL DD5 1 H 264 HKD

Click Here for downloading links The Flash 2014 S01E05 1080p WEB-DL DD5 1 H 264 HKD

Click Here for downloading links The Flash 2014 S01E06 1080p WEB-DL DD5 1 H 264 HKD

Click Here for downloading links The Flash 2014 S01E07 1080p WEB-DL DD5 1 H 264 HKD