External Links:

General
Complete name : The.Good.Wife.S05E01.Everything.Is.Ending.1080p.WEB-DL.DD5.1.H.264-BS.mkv
Format : Matroska
Format version : Version 2
File size : 1.59 GiB
Duration : 43mn 53s
Overall bit rate : 5 199 Kbps

Video
ID : 1
Format : AVC
Format/Info : Advanced Video Codec
Format profile : High@L4.0
Format settings, CABAC : Yes
Format settings, ReFrames : 4 frames
Codec ID : V_MPEG4/ISO/AVC
Duration : 43mn 53s
Bit rate : 4 711 Kbps
Width : 1 920 pixels
Height : 1 080 pixels
Display aspect ratio : 16:9
Frame rate mode : Constant
Frame rate : 23.976 fps
Color space : YUV
Chroma subsampling : 4:2:0
Bit depth : 8 bits
Scan type : Progressive
Bits/(Pixel*Frame) : 0.095
Stream size : 1.44 GiB (91%)
Language : English
Default : Yes
Forced : No
Color primaries : BT.709
Transfer characteristics : BT.709
Matrix coefficients : BT.709

Audio
ID : 2
Format : AC-3
Format/Info : Audio Coding 3
Mode extension : CM (complete main)
Format settings, Endianness : Big
Codec ID : A_AC3
Duration : 43mn 53s
Bit rate mode : Constant
Bit rate : 384 Kbps
Channel(s) : 6 channels
Channel positions : Front: L C R, Side: L R, LFE
Sampling rate : 48.0 KHz
Bit depth : 16 bits
Compression mode : Lossy
Stream size : 121 MiB (7%)
Language : English
Default : Yes
Forced : No

Text
ID : 3
Format : UTF-8
Codec ID : S_TEXT/UTF8
Codec ID/Info : UTF-8 Plain Text
Title : CC
Language : English
Default : No
Forced : No

The.Good.Wife.S05.Season.4.Recap.1080p.WEB-DL.AAC2.0.H.264.HKD.mkv 77.94 MB
Screenshot:

Sign up via clicking banner and a file link to creat a premium account.Then Get the access to protected links.

ExtMatrix Download Links

The.Good.Wife.S05.Season.4.Recap.1080p.WEB-DL.AAC2.0.H.264.HKD.mkv
The.Good.Wife.S05E01.Everything.Is.Ending.1080p.WEB-DL.DD5.1.H.264-BS.mkv
The.Good.Wife.S05E02.The.Bit.Bucket.1080p.WEB-DL.DD5.1.H.264-BS.mkv
The.Good.Wife.S05E03.A.Precious.Commodity.1080p.WEB-DL.DD5.1.H.264-BS.mkv
The.Good.Wife.S05E04.Outside.The.Bubble.1080p.WEB-DL.DD5.1.H.264-BS.mkv
The.Good.Wife.S05E05.Hitting.The.Fan.1080p.WEB-DL.DD5.1.H.264-BS.mkv
The.Good.Wife.S05E06.The.Next.Day.1080p.WEB-DL.DD5.1.H.264-BS.mkv
The.Good.Wife.S05E07.The.Next.Week.1080p.WEB-DL.DD5.1.H.264-BS.mkv
The.Good.Wife.S05E08.The.Next.Month.1080p.WEB-DL.DD5.1.H.264-BS.mkv
The.Good.Wife.S05E09.720p.HDTV.X264-DIMENSION.mkv
The.Good.Wife.S05E10.The.Decision.Tree.1080p.WEB-DL.DD5.1.H.264-BS.mkv
The.Good.Wife.S05E11.720p.HDTV.X264-DIMENSION.mkv

Click Here for downloading links The Good Wife S05E09 1080p WEB-DL DD5 1 H 264 HKD