External Links:

General
Complete name : The.Millers.S01E01.Pilot.1080p.WEB-DL.DD5.1.H.264-iSuX.mkv
Format : Matroska
Format version : Version 2
File size : 869 MiB
Duration : 21mn 41s
Overall bit rate : 5 597 Kbps

Video
ID : 1
Format : AVC
Format/Info : Advanced Video Codec
Format profile : High@L4.0
Format settings, CABAC : Yes
Format settings, ReFrames : 4 frames
Codec ID : V_MPEG4/ISO/AVC
Duration : 21mn 41s
Bit rate : 5 102 Kbps
Width : 1 920 pixels
Height : 1 080 pixels
Display aspect ratio : 16:9
Frame rate mode : Constant
Frame rate : 23.976 fps
Color space : YUV
Chroma subsampling : 4:2:0
Bit depth : 8 bits
Scan type : Progressive
Bits/(Pixel*Frame) : 0.103
Stream size : 792 MiB (91%)
Language : English
Default : Yes
Forced : No
Color primaries : BT.709
Transfer characteristics : BT.709
Matrix coefficients : BT.709

Audio
ID : 2
Format : AC-3
Format/Info : Audio Coding 3
Mode extension : CM (complete main)
Format settings, Endianness : Big
Codec ID : A_AC3
Duration : 21mn 41s
Bit rate mode : Constant
Bit rate : 384 Kbps
Channel(s) : 6 channels
Channel positions : Front: L C R, Side: L R, LFE
Sampling rate : 48.0 KHz
Bit depth : 16 bits
Compression mode : Lossy
Stream size : 59.6 MiB (7%)
Language : English
Default : Yes
Forced : No

Text
ID : 3
Format : UTF-8
Codec ID : S_TEXT/UTF8
Codec ID/Info : UTF-8 Plain Text
Title : CC
Language : English
Default : No
Forced : No

The.Millers.S01.Preview.1080p.WEB-DL.AAC2.0.H.264.HKD.mkv 131.50 MB
Screenshot:

Sign up via clicking banner and a file link to creat a premium account.Then Get the access to protected links.

ExtMatrix Download Links

The.Millers.S01.Preview.1080p.WEB-DL.AAC2.0.H.264.HKD.mkv
The.Millers.S01E01.Pilot.1080p.WEB-DL.DD5.1.H.264-iSuX.mkv
The.Millers.S01E02.Plot.Twists.1080p.WEB-DL.DD5.1.H.264-BS.mkv
The.Millers.S01E03.The.Phone.Upgrade.1080p.WEB-DL.DD5.1.H.264-BS.mkv
The.Millers.S01E04.The.Mother.Is.In.1080p.WEB-DL.DD5.1.H.264-BS.mkv
The.Millers.S01E05.Giving.the.Bird.1080p.WEB-DL.DD5.1.H.264-BS.mkv
The.Millers.S01E06.Stuff.1080p.WEB-DL.DD5.1.H.264-BS.mkv
The.Millers.S01E07.The.Talk.1080p.WEB-DL.DD5.1.H.264-BS.mkv
The.Millers.S01E08.Internet.Dating.1080p.WEB-DL.DD5.1.H.264-BS.mkv
The.Millers.S01E09.You.re.In.Trouble.1080p.WEB-DL.DD5.1.H.264-BS.mkv
The.Millers.S01E10.Carol.s.Parents.Are.Coming.to.Town.1080p.WEB-DL.DD5.1.H.264-BS.mkv
The.Millers.S01E11.Dear.Diary.1080p.WEB-DL.DD5.1.H.264-BS.mkv
The.Millers.S01E12.Millers.Mind.1080p.WEB-DL.DD5.1.H.264-BS.mkv
The.Millers.S01E13.720p.HDTV.X264-DIMENSION.mkv