External Links:

This is a variable framerate encode of Top Gear.

Studio sections + celebrity/Stig laps are shot at 50fps, while the films are shot at 25fps.

This VFR encodepresents each section at the correct framerate, so no bits are wasted,

and no unique frames are thrown out (like in the scene encode).

Xlogo has also been applied to remove the BBC HD logo.
General
Complete name : Top Gear S20E01 720p HDTV VFR x264-CtrlHD.mkv
Format : Matroska
Format version : Version 4 / Version 2
File size : 2.39 GiB
Duration : 1h 2mn
Overall bit rate : 5 439 Kbps
Encoded date : UTC 2013-07-04 01:19:00
Writing application : mkvmerge v6.3.0 (‘You can’t stop me!’) built on Jun 28 2013 20:09:41
Writing library : libebml v1.3.0 + libmatroska v1.4.0

Video
ID : 1
Format : AVC
Format/Info : Advanced Video Codec
Format profile : High@L4.1
Format settings, CABAC : Yes
Format settings, ReFrames : 9 frames
Codec ID : V_MPEG4/ISO/AVC
Duration : 1h 2mn
Bit rate : 5 138 Kbps
Width : 1 280 pixels
Height : 720 pixels
Display aspect ratio : 16:9
Frame rate mode : Constant
Frame rate : 25.000 fps
Color space : YUV
Chroma subsampling : 4:2:0
Bit depth : 8 bits
Scan type : Progressive
Bits/(Pixel*Frame) : 0.223
Stream size : 2.26 GiB (94%)
Writing library : x264 core 133 r2334 a3ac64b
Encoding settings : cabac=1 / ref=9 / deblock=1:0:0 / analyse=0x3:0x133 / me=umh / subme=10 /

Audio
ID : 2
Format : AC-3
Format/Info : Audio Coding 3
Mode extension : CM (complete main)
Format settings, Endianness : Big
Codec ID : A_AC3
Duration : 1h 2mn
Bit rate mode : Constant
Bit rate : 192 Kbps
Channel(s) : 2 channels
Channel positions : Front: L R
Sampling rate : 48.0 KHz
Bit depth : 16 bits
Compression mode : Lossy
Stream size : 86.3 MiB (4%)
Default : Yes
Forced : No

Text #1
ID : 3
Format : UTF-8
Codec ID : S_TEXT/UTF8
Codec ID/Info : UTF-8 Plain Text
Title : Non-Colored
Default : No
Forced : No

Text #2
ID : 4
Format : UTF-8
Codec ID : S_TEXT/UTF8
Codec ID/Info : UTF-8 Plain Text
Title : Colored
Default : No
Forced : No

Top Gear S20E01 720p HDTV VFR x264 CtrlHD.mkv 2.39 GB
Screenshot:

Sign up via clicking banner and a file link to creat a premium account.

ExtMatrix Download Links

Top Gear S20E03 720p HDTV VFR x264-CtrlHD.mkv