External Links:

24th.Sep.2013

General
Complete name : Trophy.Wife.S01E01.1080p.WEB-DL.DD5.1.H.264.HKD.mkv
Format : Matroska
Format version : Version 4 / Version 2
File size : 854 MiB
Duration : 22mn 3s
Overall bit rate : 5 410 Kbps
Movie name : ripped by CrazyHDSource.com

Video
ID : 1
Format : AVC
Format/Info : Advanced Video Codec
Format profile : High@L4.0
Format settings, CABAC : Yes
Format settings, ReFrames : 4 frames
Codec ID : V_MPEG4/ISO/AVC
Duration : 22mn 3s
Bit rate : 4 919 Kbps
Width : 1 920 pixels
Height : 1 080 pixels
Display aspect ratio : 16:9
Frame rate mode : Constant
Frame rate : 23.976 fps
Color space : YUV
Chroma subsampling : 4:2:0
Bit depth : 8 bits
Scan type : Progressive
Bits/(Pixel*Frame) : 0.099
Stream size : 776 MiB (91%)
Title : ripped by CrazyHDSource.com
Language : English
Default : Yes
Forced : No
Color primaries : BT.709
Transfer characteristics : BT.709
Matrix coefficients : BT.709

Audio
ID : 2
Format : AC-3
Format/Info : Audio Coding 3
Mode extension : CM (complete main)
Format settings, Endianness : Big
Codec ID : A_AC3
Duration : 22mn 3s
Bit rate mode : Constant
Bit rate : 384 Kbps
Channel(s) : 6 channels
Channel positions : Front: L C R, Side: L R, LFE
Sampling rate : 48.0 KHz
Bit depth : 16 bits
Compression mode : Lossy
Stream size : 60.6 MiB (7%)
Language : English
Default : Yes
Forced : No

Text
ID : 3
Format : UTF-8
Codec ID : S_TEXT/UTF8
Codec ID/Info : UTF-8 Plain Text
Language : English
Default : No
Forced : No

Trophy.S01.Trailer.720p.WEB-DL.AAC2.0.H.264.HKD.mkv 46.18 MB
Screenshot:

Sign up via clicking banner and a file link to creat a premium account.Then Get the access to protected links.

ExtMatrix Download Links

Trophy.S01.Trailer.720p.WEB-DL.AAC2.0.H.264.HKD.mkv
Trophy.Wife.S01E01.720p.Pilot.WEBRip.AAC2.0.H.264-HRiP.mkv
Trophy.Wife.S01E01.1080p.WEB-DL.DD5.1.H.264.HKD.part1.rar
Trophy.Wife.S01E01.1080p.WEB-DL.DD5.1.H.264.HKD.part2.rar
Trophy.Wife.S01E02.Cold.File.1080p.WEB-DL.DD5.1.H.264-BS.mkv
Trophy.Wife.S01E03.The.Social.Network.1080p.WEB-DL.DD5.1.H.264-BS.mkv
Trophy.Wife.S01E04.The.Breakup.1080p.WEB-DL.DD5.1.H.264-BS.mkv
Trophy.Wife.S01E05.The.Tryst.1080p.WEB-DL.DD5.1.H.264-BS.mkv
Trophy.Wife.S01E06.Halloween.1080p.WEB-DL.DD5.1.H.264-BS.mkv
Trophy.Wife.S01E07.The.Date.1080p.WEB-DL.DD5.1.H.264-BS.mkv
Trophy.Wife.S01E08.Lice.and.Beary.White.1080p.WEB-DL.DD5.1.H.264-BS.mkv
Trophy.Wife.S01E09.Russ.Bradley.Morrison.1080p.WEB-DL.DD5.1.H.264-BS.mkv
Trophy.Wife.S01E10.Twas.the.Night.Before.Christmas.or.Twas.it.1080p.WEB-DL.DD5.1.H.264-BS.mkv
Trophy.Wife.S01E11.The.Big.5-0.1080p.WEB-DL.DD5.1.H.264-BS.mkv