Two Days, One Night (2014)
“Deux jours, une nuit” (original title)


Useful link:

MediaInfo:
General
Complete name : Two.Days.One.Night.2014.720p.BluRay.DD5.1.×264-VietHD.mkv
Format : Matroska
Format version : Version 4 / Version 2
File size : 4.74 GiB
Duration : 1h 35mn
Overall bit rate : 7 139 Kbps

Video
ID : 1
Format : AVC
Format/Info : Advanced Video Codec
Format profile : High@L4.1
Format settings, CABAC : Yes
Format settings, ReFrames : 9 frames
Codec ID : V_MPEG4/ISO/AVC
Duration : 1h 35mn
Bit rate : 6 500 Kbps
Width : 1 280 pixels
Height : 690 pixels
Display aspect ratio : 1.85:1
Frame rate mode : Constant
Frame rate : 23.976 fps
Color space : YUV
Chroma subsampling : 4:2:0
Bit depth : 8 bits
Scan type : Progressive
Bits/(Pixel*Frame) : 0.307
Stream size : 4.23 GiB (89%)
Title : Two.Days.One.Night.2014
Writing library : x264 core 142 r2453 ea0ca51
Encoding settings : cabac=1 / ref=9 / deblock=1:-3:-3 / analyse=0x3:0x133 / me=umh / subme=11 / psy=1 /

Audio
ID : 2
Format : AC-3
Format/Info : Audio Coding 3
Mode extension : CM (complete main)
Format settings, Endianness : Big
Codec ID : A_AC3
Duration : 1h 35mn
Bit rate mode : Constant
Bit rate : 640 Kbps
Channel(s) : 6 channels
Channel positions : Front: L C R, Side: L R, LFE
Sampling rate : 48.0 KHz
Bit depth : 16 bits
Compression mode : Lossy
Stream size : 436 MiB (9%)
Language : French
Default : Yes
Forced : No

Text
ID : 3
Format : UTF-8
Codec ID : S_TEXT/UTF8
Codec ID/Info : UTF-8 Plain Text
Language : English
Default : Yes
Forced : No

Menu
00:00:00.000 : en:00:00:00.000
00:06:12.706 : en:00:06:12.706
00:17:49.360 : en:00:17:49.360
00:21:06.348 : en:00:21:06.348
00:28:06.894 : en:00:28:06.894
00:35:57.781 : en:00:35:57.781
00:42:43.519 : en:00:42:43.519
00:51:24.039 : en:00:51:24.039
01:14:19.955 : en:01:14:19.955
01:18:23.198 : en:01:18:23.198
01:22:12.845 : en:01:22:12.845
01:25:22.534 : en:01:25:22.534

Screenshot:

Sign up via clicking banner and a file link to creat a premium account.Then Get the access to protected links.

ExtMatrix Download Links

Two.Days.One.Night.2014.720p.BluRay.DD5.1.x264-VietHD.mkv