External Links:

General
Complete name : Witches.of.East.End.S01E01.1080p.WEB-DL.DD5.1.H.264.HKD.mkv
Format : Matroska
Format version : Version 4 / Version 2
File size : 1.65 GiB
Duration : 42mn 56s
Overall bit rate : 5 511 Kbps
Movie name : ripped by CrazyHDSource.com

Video
ID : 1
Format : AVC
Format/Info : Advanced Video Codec
Format profile : High@L4.0
Format settings, CABAC : Yes
Format settings, ReFrames : 4 frames
Codec ID : V_MPEG4/ISO/AVC
Duration : 42mn 56s
Bit rate : 5 017 Kbps
Width : 1 912 pixels
Height : 1 072 pixels
Display aspect ratio : 16:9
Frame rate mode : Constant
Frame rate : 23.976 fps
Color space : YUV
Chroma subsampling : 4:2:0
Bit depth : 8 bits
Scan type : Progressive
Bits/(Pixel*Frame) : 0.102
Stream size : 1.51 GiB (91%)
Title : ripped by CrazyHDSource.com
Language : English
Default : Yes
Forced : No
Color primaries : BT.709
Transfer characteristics : BT.709
Matrix coefficients : BT.709

Audio
ID : 2
Format : AC-3
Format/Info : Audio Coding 3
Mode extension : CM (complete main)
Format settings, Endianness : Big
Codec ID : A_AC3
Duration : 42mn 56s
Bit rate mode : Constant
Bit rate : 384 Kbps
Channel(s) : 6 channels
Channel positions : Front: L C R, Side: L R, LFE
Sampling rate : 48.0 KHz
Bit depth : 16 bits
Compression mode : Lossy
Stream size : 118 MiB (7%)
Language : English
Default : Yes
Forced : No

Text
ID : 3
Format : UTF-8
Codec ID : S_TEXT/UTF8
Codec ID/Info : UTF-8 Plain Text
Language : English
Default : No
Forced : No

Witches.of.East.End.S01.Sneak.Peek.1080p.WEB-DL.DD5.1.H.264-HKD.mkv 125.33 MB
Screenshot:

Sign up via clicking banner and a file link to creat a premium account.Then Get the access to protected links.

ExtMatrix Download Links

Witches.of.East.End.S01E01.1080p.WEB-DL.DD5.1.H.264.HKD.mkv
Witches.of.East.End.S01E02.Marilyn.Fenwick.R.I.P.1080p.WEB-DL.DD5.1.H.264-NTb.mkv
Witches.of.East.End.S01E04.A.Few.Good.Talismen.1080p.WEB-DL.DD5.1.H.264-NTb.mkv
Witches.of.East.End.S01E05.Electric.Avenue.1080p.WEB-DL.DD5.1.H.264-NTb.mkv
Witches.of.East.End.S01E06.Potentia.Noctis.1080p.WEB-DL.DD5.1.H.264-NTb.mkv
Witches.of.East.End.S01E07.Unburied.1080p.WEB-DL.DD5.1.H.264-NTb.mkv
Witches.of.East.End.S01E08.Snake.Eyes.1080p.WEB-DL.DD5.1.H.264-NTb.mkv
Witches.of.East.End.S01E09.A.Parching.Imbued.1080p.WEB-DL.DD5.1.H.264-NTb.mkv
Witches.of.East.End.S01E10.Oh.What.a.World.1080p.WEB-DL.DD5.1.H.264-NTb.mkv
Witches.of.East.End.S01E03.Today.I.Am.a.Witch.1080p.WEB-DL.DD5.1.H.264-NTb.mkv