Series Info
# of Seasons: 3
Country: US
Air Day: Monday
Air Time: 8:00 PM
First Aired: 2006-06-26
Rating: TV-PG
Series Status: Canceled/Ended
Runtime: 60 Minutes
Network: ABC Family
Classification: Scripted
TVDB Rating: 8.3
External Links:

 Kyle XY (2006–2009)

TV Series  –   –  tvDrama | tvMystery | tvSci-Fi
7.1

Your rating:

   -/10
Ratings: 7.1/10 from 7,514 users
Reviews: 119 user | 20 critic

 

A family takes in a formerly institutionalized teen savant (Dallas) who is missing standard human behaviors such as anger, joy and love.

Source from US Itunes Store,not HULU.

General
Complete name : Kyle.XY.S03E02.Psychic.Friend.1080p.WEB-DL.DD5.1.H264-BORDERLiNE.mkv
Format : Matroska
Format version : Version 4 / Version 2
File size : 1.68 GiB
Duration : 43mn 43s
Overall bit rate : 5 515 Kbps

Video
ID : 1
Format : AVC
Format/Info : Advanced Video Codec
Format profile : High@L4.0
Format settings, CABAC : Yes
Format settings, ReFrames : 4 frames
Codec ID : V_MPEG4/ISO/AVC
Duration : 43mn 43s
Bit rate : 5 022 Kbps
Width : 1 920 pixels
Height : 1 080 pixels
Display aspect ratio : 16:9
Frame rate mode : Constant
Frame rate : 23.976 fps
Color space : YUV
Chroma subsampling : 4:2:0
Bit depth : 8 bits
Scan type : Progressive
Bits/(Pixel*Frame) : 0.101
Stream size : 1.53 GiB (91%)
Language : English
Default : Yes
Forced : No
Color primaries : BT.709
Transfer characteristics : BT.709
Matrix coefficients : BT.709

Audio
ID : 2
Format : AC-3
Format/Info : Audio Coding 3
Mode extension : CM (complete main)
Format settings, Endianness : Big
Codec ID : A_AC3
Duration : 43mn 43s
Bit rate mode : Constant
Bit rate : 384 Kbps
Channel(s) : 6 channels
Channel positions : Front: L C R, Side: L R, LFE
Sampling rate : 48.0 KHz
Bit depth : 16 bits
Compression mode : Lossy
Stream size : 120 MiB (7%)
Language : English
Default : Yes
Forced : No

File Name Size
Kyle.XY.S01E01.Pilot.1080p.WEB DL.DD5.1.H264 BORDERLiNE.mkv 1.69 GB
Kyle.XY.S01E02.Sleepless.In.Seattle.1080p.WEB DL.DD5.1.H264 BORDERLiNE.mkv 1.76 GB
Kyle.XY.S01E03.The.Lies.That.Bind.1080p.WEB DL.DD5.1.H264 BORDERLiNE.mkv 1.68 GB
Kyle.XY.S01E04.Diving.In.1080p.WEB DL.DD5.1.H264 BORDERLiNE.mkv 1.70 GB
Kyle.XY.S01E05.This.Is.Not.A.Test.1080p.WEB DL.DD5.1.H264 BORDERLiNE.mkv 1.77 GB
Kyle.XY.S01E06.Blame.It.On.The.Rain.1080p.WEB DL.DD5.1.H264 BORDERLiNE.mkv 1.71 GB
Kyle.XY.S01E07.Kyle.Got.Game.1080p.WEB DL.DD5.1.H264 BORDERLiNE.mkv 1.66 GB
Kyle.XY.S01E08.Memory.Serves.1080p.WEB DL.DD5.1.H264 BORDERLiNE.mkv 1.69 GB
Kyle.XY.S01E09.Overheard.1080p.WEB DL.DD5.1.H264 BORDERLiNE.mkv 1.72 GB
Kyle.XY.S01E10.End.Game.1080p.WEB DL.DD5.1.H264 BORDERLiNE.mkv 1.73 GB
File Name Size
Kyle.XY.S02E23.Ive.Had.The.Time.Of.My.Life.1080p.WEB DL.DD5.1.H264 BORDERLiNE.mkv 1.66 GB
Kyle.XY.S02E22.Hello…1080p.WEB DL.DD5.1.H264 BORDERLiNE.mkv 1.68 GB
Kyle.XY.S02E21.Grey.Matters.1080p.WEB DL.DD5.1.H264 BORDERLiNE.mkv 1.65 GB
Kyle.XY.S02E20.Primary.Colors.1080p.WEB DL.DD5.1.H264 BORDERLiNE.mkv 1.66 GB
Kyle.XY.S02E19.The.First.Cut.Is.The.Deepest.1080p.WEB DL.DD5.1.H264 BORDERLiNE.mkv 1.63 GB
Kyle.XY.S02E18.Between.A.Rock.And.A…1080p.WEB DL.DD5.1.H264 BORDERLiNE.mkv 1.69 GB
Kyle.XY.S02E17.Grounded.1080p.WEB DL.DD5.1.H264 BORDERLiNE.mkv 1.61 GB
Kyle.XY.S02E16.Great.Expectations.1080p.WEB DL.DD5.1.H264 BORDERLiNE.mkv 1.66 GB
Kyle.XY.S02E15.The.Futures.So.Bright.1080p.WEB DL.DD5.1.H264 BORDERLiNE.mkv 1.67 GB
Kyle.XY.S02E14.To.C.I.R.With.Love.1080p.WEB DL.DD5.1.H264 BORDERLiNE.mkv 1.65 GB
Kyle.XY.S02E13.Leap.Of.Faith.1080p.WEB DL.DD5.1.H264 BORDERLiNE.mkv 1.70 GB
Kyle.XY.S02E12.Lockdown.1080p.WEB DL.DD5.1.H264 BORDERLiNE.mkv 1.62 GB
Kyle.XY.S02E11.Hands.On.A.Hybrid.1080p.WEB DL.DD5.1.H264 BORDERLiNE.mkv 1.68 GB
Kyle.XY.S02E10.House.Of.Cards.1080p.WEB DL.DD5.1.H264 BORDERLiNE.mkv 1.63 GB
Kyle.XY.S02E09.Ghost.In.The.Machine.1080p.WEB DL.DD5.1.H264 BORDERLiNE.mkv 1.56 GB
Kyle.XY.S02E08.Whats.The.Frequency.Kyle.1080p.WEB DL.DD5.1.H264 BORDERLiNE.mkv 1.64 GB
Kyle.XY.S02E07.Free.To.Be.You.And.Me.1080p.WEB DL.DD5.1.H264 BORDERLiNE.mkv 1.70 GB
Kyle.XY.S02E06.Does.Kyle.Dream.Of.Electric.Fish.1080p.WEB DL.DD5.1.H264 BORDERLiNE.mkv 1.77 GB
Kyle.XY.S02E05.Come.To.Your.Senses.1080p.WEB DL.DD5.1.H264 BORDERLiNE.mkv 1.67 GB
Kyle.XY.S02E04.Balancing.Act.1080p.WEB DL.DD5.1.H264 BORDERLiNE.mkv 1.59 GB
Kyle.XY.S02E03.The.List.Is.Life.1080p.WEB DL.DD5.1.H264 BORDERLiNE.mkv 1.69 GB
Kyle.XY.S02E02.The.Homecoming.1080p.WEB DL.DD5.1.H264 BORDERLiNE.mkv 1.65 GB
Kyle.XY.S02E01.The.Prophet.1080p.WEB DL.DD5.1.H264 BORDERLiNE.mkv 1.65 GB
File Name Size
Kyle.XY.S03E01.It.Happened.One.Night.1080p.WEB DL.DD5.1.H264 BORDERLiNE.mkv 1.58 GB
Kyle.XY.S03E02.Psychic.Friend.1080p.WEB DL.DD5.1.H264 BORDERLiNE.mkv 1.68 GB
Kyle.XY.S03E03.Electric.Kiss.1080p.WEB DL.DD5.1.H264 BORDERLiNE.mkv 1.67 GB
Kyle.XY.S03E04.In.The.Company.Of.Men.1080p.WEB DL.DD5.1.H264 BORDERLiNE.mkv 1.68 GB
Kyle.XY.S03E05.Life.Support.1080p.WEB DL.DD5.1.H264 BORDERLiNE.mkv 1.64 GB
Kyle.XY.S03E06.Welcome.To.Latnok.1080p.WEB DL.DD5.1.H264 BORDERLiNE.mkv 1.67 GB
Kyle.XY.S03E07.Chemisty.101.1080p.WEB DL.DD5.1.H264 BORDERLiNE.mkv 1.68 GB
Kyle.XY.S03E08.Tell Tale.Heart.1080p.WEB DL.DD5.1.H264 BORDERLiNE.mkv 1.60 GB
Kyle.XY.S03E09.Guess.Whos.Coming.To.Dinner.1080p.WEB DL.DD5.1.H264 BORDERLiNE.mkv 1.62 GB
Kyle.XY.S03E10.Bring.Down.The.House.1080p.WEB DL.DD5.1.H264 BORDERLiNE.mkv 1.66 GB

Screenshot:

Sign up via clicking banner and a file link to creat a premium account.

ExtMatrix Download Links

Kyle.XY.S01E01.Pilot.1080p.WEB-DL.DD5.1.H264-BORDERLiNE.mkv

Kyle XY S01 S02 S03 Complete 1080p WEB-DL DD5.1 H264 BORDERLiNE