Useful link:

MediaInfo:
General
Complete name : Parkland.2013.LIMITED.720p.BluRay.x264-GECKOS
Format : Matroska
Format version : Version 4 / Version 2
File size : 3.27 GiB
Duration : 1h 33mn
Overall bit rate : 5 002 Kbps

Video
ID : 1
Format : AVC
Format/Info : Advanced Video Codec
Format profile : High@L4.1
Format settings, CABAC : Yes
Format settings, ReFrames : 5 frames
Codec ID : V_MPEG4/ISO/AVC
Duration : 1h 33mn
Bit rate : 4 364 Kbps
Width : 1 280 pixels
Height : 720 pixels
Display aspect ratio : 16:9
Frame rate mode : Constant
Frame rate : 23.976 fps
Color space : YUV
Chroma subsampling : 4:2:0
Bit depth : 8 bits
Scan type : Progressive
Bits/(Pixel*Frame) : 0.197
Stream size : 2.79 GiB (85%)
Title : X264
Writing library : x264 core 133 r2334 a3ac64b
Encoding settings : cabac=1 / ref=5 / deblock=1:0:0 / analyse=0x3:0x133 / me=umh / subme=7 /

Audio
ID : 2
Format : AC-3
Format/Info : Audio Coding 3
Mode extension : CM (complete main)
Format settings, Endianness : Big
Codec ID : A_AC3
Duration : 1h 33mn
Bit rate mode : Constant
Bit rate : 640 Kbps
Channel(s) : 6 channels
Channel positions : Front: L C R, Side: L R, LFE
Sampling rate : 48.0 KHz
Bit depth : 16 bits
Compression mode : Lossy
Stream size : 429 MiB (13%)
Title : AC3
Language : English
Default : Yes
Forced : No

Menu
00:00:00.000 : en:00:00:00.000
00:06:07.951 : en:00:06:07.951
00:13:19.549 : en:00:13:19.549
00:23:23.611 : en:00:23:23.611
00:30:37.461 : en:00:30:37.461
00:37:15.358 : en:00:37:15.358
00:45:07.955 : en:00:45:07.955
00:54:00.863 : en:00:54:00.863
01:01:36.943 : en:01:01:36.943
01:08:36.821 : en:01:08:36.821
01:14:54.532 : en:01:14:54.532
01:26:26.473 : en:01:26:26.473

Screenshot:

Sign up via clicking banner and a file link to creat a premium account.Then Get the access to protected links.

ExtMatrix Download Links

Parkland.2013.LIMITED.720p.BluRay.x264-GECKOS.mkv