Useful link:

MediaInfo:
General
Complete name : Grown.Ups.2.2013.720p.BluRay.x264-SPARKS.mkv
Format : Matroska
Format version : Version 4 / Version 2
File size : 4.37 GiB
Duration : 1h 40mn
Overall bit rate : 6 193 Kbps

Video
ID : 1
Format : AVC
Format/Info : Advanced Video Codec
Format profile : High@L4.1
Format settings, CABAC : Yes
Format settings, ReFrames : 5 frames
Codec ID : V_MPEG4/ISO/AVC
Duration : 1h 40mn
Bit rate : 4 684 Kbps
Width : 1 280 pixels
Height : 688 pixels
Display aspect ratio : 1.85:1
Frame rate mode : Constant
Frame rate : 23.976 fps
Color space : YUV
Chroma subsampling : 4:2:0
Bit depth : 8 bits
Scan type : Progressive
Bits/(Pixel*Frame) : 0.222
Stream size : 3.22 GiB (74%)
Title : X264
Writing library : x264 core 133 r2334 a3ac64b
Encoding settings : cabac=1 / ref=5 / deblock=1:0:0 / analyse=0x3:0x133 / me=umh / subme=7 / psy=1 /

Audio
ID : 2
Format : DTS
Format/Info : Digital Theater Systems
Mode : 16
Format settings, Endianness : Big
Codec ID : A_DTS
Duration : 1h 40mn
Bit rate mode : Constant
Bit rate : 1 509 Kbps
Channel(s) : 6 channels
Channel positions : Front: L C R, Side: L R, LFE
Sampling rate : 48.0 KHz
Bit depth : 24 bits
Compression mode : Lossy
Stream size : 1.06 GiB (24%)
Title : DTS
Language : English
Default : Yes
Forced : No

Menu
00:00:00.000 : en:00:00:00.000
00:04:30.937 : en:00:04:30.937
00:12:02.555 : en:00:12:02.555
00:18:14.677 : en:00:18:14.677
00:25:34.158 : en:00:25:34.158
00:29:47.661 : en:00:29:47.661
00:37:02.387 : en:00:37:02.387
00:45:15.713 : en:00:45:15.713
00:48:53.430 : en:00:48:53.430
00:54:22.593 : en:00:54:22.593
01:00:49.938 : en:01:00:49.938
01:05:15.662 : en:01:05:15.662
01:10:52.415 : en:01:10:52.415
01:16:49.355 : en:01:16:49.355
01:23:26.793 : en:01:23:26.793
01:31:02.666 : en:01:31:02.666

Screenshot:

Sign up via clicking banner and a file link to creat a premium account.Then Get the access to protected links.

ExtMatrix Download Links

Grown.Ups.2.2013.720p.BluRay.x264-SPARKS.mkv