Useful link:

MediaInfo:

RELEASE iNFO
RELEASE NAME..: Possession.1981.720p.BluRay.FLAC.x264-TayTO
ENCODED DATE..: UTC 2013-10-22 13:07:50
RELEASE SIZE..: 11.5 GiB
RUNTIME…….: 2h 3mn
VIDEO CODEC…: x264, High@L4.1
FRAMERATE…..: 23.976 fps
BITRATE…….: 12.1 Mbps
RESOLUTION….: 1200×720
AUDIO………: English FLAC 1.0@680 Kbps
AUDIO2……..: English AAC 2.0@117 Kbps | Commentary by Andrzej Zulawski
AUDIO3……..: English AAC 2.0@169 Kbps | Commentary by Frederic Tuten
CHAPTERS……: Yes
SUBTITLES…..: English
SOURCE……..: Possession 1981 1080p Blu-ray AVC LPCM 1.0-BIZON1984
General
Complete name : Possession.1981.720p.BluRay.X264-7SinS.mkv
Format : Matroska
Format version : Version 2
File size : 4.36 GiB
Duration : 2h 3mn
Overall bit rate : 5 051 Kbps

Video
ID : 1
Format : AVC
Format/Info : Advanced Video Codec
Format profile : High@L4.1
Format settings, CABAC : Yes
Format settings, ReFrames : 5 frames
Codec ID : V_MPEG4/ISO/AVC
Duration : 2h 3mn
Bit rate : 4 410 Kbps
Width : 1 200 pixels
Height : 720 pixels
Display aspect ratio : 1.667
Frame rate mode : Constant
Frame rate : 23.976 fps
Color space : YUV
Chroma subsampling : 4:2:0
Bit depth : 8 bits
Scan type : Progressive
Bits/(Pixel*Frame) : 0.213
Stream size : 3.72 GiB (85%)
Writing library : x264 core 135 r2345 f0c1c53
Encoding settings : cabac=1 / ref=5 / deblock=1:0:0 / analyse=0x3:0x133 / me=umh / subme=7 /

Audio
ID : 2
Format : AC-3
Format/Info : Audio Coding 3
Mode extension : CM (complete main)
Format settings, Endianness : Big
Codec ID : A_AC3
Duration : 2h 3mn
Bit rate mode : Constant
Bit rate : 640 Kbps
Channel(s) : 1 channel
Channel positions : Front: C
Sampling rate : 48.0 KHz
Bit depth : 16 bits
Compression mode : Lossy
Stream size : 566 MiB (13%)
Language : English
Default : Yes
Forced : No

Text
ID : 3
Format : UTF-8
Codec ID : S_TEXT/UTF8
Codec ID/Info : UTF-8 Plain Text
Language : English
Default : Yes
Forced : No

Menu
00:00:00.000 : en:00:00:00.000
00:05:42.384 : en:00:05:42.384
00:12:49.018 : en:00:12:49.018
00:19:15.112 : en:00:19:15.112
00:26:41.517 : en:00:26:41.517
00:31:39.940 : en:00:31:39.940
00:35:43.016 : en:00:35:43.016
00:44:18.322 : en:00:44:18.322
00:48:48.092 : en:00:48:48.092
00:56:00.774 : en:00:56:00.774
01:04:38.041 : en:01:04:38.041
01:09:49.018 : en:01:09:49.018
01:13:20.229 : en:01:13:20.229
01:21:10.616 : en:01:21:10.616
01:27:16.189 : en:01:27:16.189
01:30:48.693 : en:01:30:48.693
01:41:09.689 : en:01:41:09.689
01:47:54.385 : en:01:47:54.385
01:52:50.764 : en:01:52:50.764
02:00:36.271 : en:02:00:36.271

Screenshot:

Sign up via clicking banner and a file link to creat a premium account.Then Get the access to protected links.

ExtMatrix Download Links

Possession.1981.720p.BluRay.X264-7SinS.mkv
Possession.1981.720p.BluRay.FLAC.x264-TayTO.part01.ra
Possession.1981.720p.BluRay.FLAC.x264-TayTO.part02.ra
Possession.1981.720p.BluRay.FLAC.x264-TayTO.part03.ra
Possession.1981.720p.BluRay.FLAC.x264-TayTO.part04.ra
Possession.1981.720p.BluRay.FLAC.x264-TayTO.part05.ra
Possession.1981.720p.BluRay.FLAC.x264-TayTO.part06.ra
Possession.1981.720p.BluRay.FLAC.x264-TayTO.part07.ra
Possession.1981.720p.BluRay.FLAC.x264-TayTO.part08.ra
Possession.1981.720p.BluRay.FLAC.x264-TayTO.part09.ra
Possession.1981.720p.BluRay.FLAC.x264-TayTO.part10.ra
Possession.1981.720p.BluRay.FLAC.x264-TayTO.part11.ra
Possession.1981.720p.BluRay.FLAC.x264-TayTO.part12.ra
Possession.1981.720p.BluRay.FLAC.x264-TayTO.part13.ra