External Links:

General
Complete name : Ugly.Betty.S02E17.The.Kids.Are.Alright.720p.WEB-DL.DD5.1.h.264-ETP.mkv
Format : Matroska
Format version : Version 2
File size : 1.38 GiB
Duration : 42mn 50s
Overall bit rate : 4 600 Kbps

Video
ID : 1
Format : AVC
Format/Info : Advanced Video Codec
Format profile : High@L3.1
Format settings, CABAC : No
Format settings, ReFrames : 2 frames
Codec ID : V_MPEG4/ISO/AVC
Duration : 42mn 50s
Bit rate : 4 124 Kbps
Width : 1 280 pixels
Height : 720 pixels
Display aspect ratio : 16:9
Frame rate mode : Constant
Frame rate : 23.976 fps
Color space : YUV
Chroma subsampling : 4:2:0
Bit depth : 8 bits
Scan type : Progressive
Bits/(Pixel*Frame) : 0.187
Stream size : 1.23 GiB (90%)
Language : English
Default : Yes
Forced : No
Color primaries : BT.709
Transfer characteristics : BT.709
Matrix coefficients : BT.709

Audio
ID : 2
Format : AC-3
Format/Info : Audio Coding 3
Mode extension : CM (complete main)
Format settings, Endianness : Big
Codec ID : A_AC3
Duration : 42mn 50s
Bit rate mode : Constant
Bit rate : 384 Kbps
Channel(s) : 6 channels
Channel positions : Front: L C R, Side: L R, LFE
Sampling rate : 48.0 KHz
Bit depth : 16 bits
Compression mode : Lossy
Stream size : 118 MiB (8%)
Language : English
Default : Yes
Forced : No

File Name Size
Ugly.Betty.S01E01.Pilot.720p.WEB DL.AAC.2.0.h.264 PiLAF.mkv 1.23 GB
Ugly.Betty.S01E02.The.Box.and.the.Bunny.720p.WEB DL.AAC.2.0.h.264 PiLAF.mkv 1.28 GB
Ugly.Betty.S01E03.Queens.for.a.Day.720p.WEB DL.AAC.2.0.h.264 PiLAF.mkv 1.26 GB
Ugly.Betty.S01E04.Feys.Sleigh.Ride.720p.WEB DL.AAC.2.0.h.264 PiLAF.mkv 1.28 GB
Ugly.Betty.S01E05.The.Lyin.the.Watch.and.the.Wardrobe.720p.WEB DL.AAC.2.0.h.264 PiLAF.mkv 1.25 GB
Ugly.Betty.S01E06.Trust.Lust.and.Must.720p.WEB DL.AAC.2.0.h.264 PiLAF.mkv 1.27 GB
Ugly.Betty.S01E07.After.Hours.720p.WEB DL.AAC.2.0.h.264 PiLAF.mkv 1.31 GB
Ugly.Betty.S01E08.Four.Thanksgivings.and.a.Funeral.720p.WEB DL.AAC.2.0.h.264 PiLAF.mkv 1.24 GB
Ugly.Betty.S01E09.Lose.the.Boss.720p.WEB DL.AAC.2.0.h.264 PiLAF.mkv 1.33 GB
Ugly.Betty.S01E10.Fake.Plastic.Snow.720p.WEB DL.AAC.2.0.h.264 PiLAF.mkv 1.25 GB
Ugly.Betty.S01E11.Swag.720p.WEB DL.AAC.2.0.h.264 PiLAF.mkv 1.30 GB
Ugly.Betty.S01E12.Sofias.Choice.720p.WEB DL.AAC.2.0.h.264 PiLAF.mkv 1.30 GB
Ugly.Betty.S01E13.In.or.Out.720p.WEB DL.AAC.2.0.h.264 PiLAF.mkv 1.28 GB
Ugly.Betty.S01E14.Im.Coming.Out.720p.WEB DL.AAC.2.0.h.264 PiLAF.mkv 1.31 GB
Ugly.Betty.S01E15.Brothers.and.Friends.720p.WEB DL.AAC.2.0.h.264 PiLAF.mkv 1.31 GB
Ugly.Betty.S01E16.Derailed.720p.WEB DL.AAC.2.0.h.264 PiLAF.mkv 1.26 GB
Ugly.Betty.S01E17.Icing.On.the.Cake.720p.WEB DL.AAC.2.0.h.264 PiLAF.mkv 1.27 GB
Ugly.Betty.S01E18.Do’t.Ask.Dont.Tell.720p.WEB DL.AAC.2.0.h.264 PiLAF.mkv 1.24 GB
Ugly.Betty.S01E19.Punch.Out.720p.WEB DL.AAC.2.0.h.264 PiLAF.mkv 1.23 GB
Ugly.Betty.S01E20.Petra Gate.720p.WEB DL.AAC.2.0.h.264 PiLAF.mkv 1.29 GB
Ugly.Betty.S01E21.Secretaries.Day.720p.WEB DL.AAC.2.0.h.264 PiLAF.mkv 1.25 GB
Ugly.Betty.S01E22.A.Tree.Grows.In.Guadalajara.720p.WEB DL.AAC.2.0.h.264 PiLAF.mkv 1.24 GB
Ugly.Betty.S01E23.East.Side.Story.720p.WEB DL.AAC.2.0.h.264 PiLAF.mkv 1.25 GB

Ugly.Betty.S02E01.How.Betty.Got.Her.Grieve.Back.720p.WEB DL.DD5.1.h.264 ETP.mkv 1.31 GB
Ugly.Betty.S02E02.Family..Affair.720p.WEB DL.DD5.1.h.264 ETP.mkv 1.40 GB
Ugly.Betty.S02E03.Bettys.Wait.Problem.720p.WEB DL.DD5.1.h.264 ETP.mkv 1.31 GB
Ugly.Betty.S02E04.Grin.and.Bear.It.720p.WEB DL.DD5.1.h.264 ETP.mkv 1.35 GB
Ugly.Betty.S02E05.A.League.of.Their.Own.720p.WEB DL.DD5.1.h.264 ETP.mkv 1.32 GB
Ugly.Betty.S02E06.Something.Wicked.This.Way.Comes.720p.WEB DL.DD5.1.h.264 ETP.mkv 1.34 GB
Ugly.Betty.S02E07.A.Nice.Day.for.a.Posh.Wedding.720p.WEB DL.DD5.1.h.264 ETP.mkv 1.39 GB
Ugly.Betty.S02E08.I.See.Me.I.C.U..720p.WEB DL.DD5.1.h.264 ETP.mkv 1.26 GB
Ugly.Betty.S02E09.Giving.Up.the.Ghost.720p.WEB DL.DD5.1.h.264 ETP.mkv 1.39 GB
Ugly.Betty.S02E10.Bananas.for.Betty.720p.WEB DL.DD5.1.h.264 ETP.mkv 1.29 GB
Ugly.Betty.S02E11.Zero.Worship.720p.WEB DL.DD5.1.h.264 ETP.mkv 1.32 GB
Ugly.Betty.S02E12.Odor.In.the.Court.720p.WEB DL.DD5.1.h.264 ETP.mkv 1.33 GB
Ugly.Betty.S02E13.A.Thousand.Words.By.Friday.720p.WEB DL.DD5.1.h.264 ETP.mkv 1.26 GB
Ugly.Betty.S02E14.Twenty.Four.Candles.720p.WEB DL.DD5.1.h.264 ETP.mkv 1.36 GB
Ugly.Betty.S02E15.Burning.Questions.720p.WEB DL.DD5.1.h.264 ETP.mkv 1.31 GB
Ugly.Betty.S02E16.Bettys.Baby.Bump.720p.WEB DL.DD5.1.h.264 ETP.mkv 1.32 GB
Ugly.Betty.S02E17.The.Kids.Are.Alright.720p.WEB DL.DD5.1.h.264 ETP.mkv 1.38 GB
Ugly.Betty.S02E18.Jump.720p.WEB DL.DD5.1.h.264 ETP.mkv 1.33 GB

Screenshot:

Sign up via clicking banner and a file link to creat a premium account.Then Get the access to protected links.

ExtMatrix Download Links

Ugly.Betty.S01E01.Pilot.720p.WEB-DL.AAC.2.0.h.264-PiLAF.mkv

Click Here for downloading links Ugly Betty Complete S01 S02 720p WEB-DL AAC 2.0 DD5.1 h.264 Pilaf ETP