Useful link:

MediaInfo:
General
Complete name : Before.Midnight.2013.720p.BluRay.x264-SPARKS.mkv
Format : Matroska
Format version : Version 4 / Version 2
File size : 4.37 GiB
Duration : 1h 48mn
Overall bit rate : 5 741 Kbps

Video
ID : 1
Format : AVC
Format/Info : Advanced Video Codec
Format profile : High@L4.1
Format settings, CABAC : Yes
Format settings, ReFrames : 5 frames
Codec ID : V_MPEG4/ISO/AVC
Duration : 1h 48mn
Bit rate : 4 232 Kbps
Width : 1 280 pixels
Height : 688 pixels
Display aspect ratio : 1.85:1
Frame rate mode : Constant
Frame rate : 23.976 fps
Color space : YUV
Chroma subsampling : 4:2:0
Bit depth : 8 bits
Scan type : Progressive
Bits/(Pixel*Frame) : 0.200
Stream size : 3.13 GiB (72%)
Title : X264
Writing library : x264 core 133 r2334 a3ac64b
Encoding settings : cabac=1 / ref=5 / deblock=1:0:0 / analyse=0x3:0x133 / me=umh / subme=7

Audio
ID : 2
Format : DTS
Format/Info : Digital Theater Systems
Mode : 16
Format settings, Endianness : Big
Codec ID : A_DTS
Duration : 1h 48mn
Bit rate mode : Constant
Bit rate : 1 509 Kbps
Channel(s) : 6 channels
Channel positions : Front: L C R, Side: L R, LFE
Sampling rate : 48.0 KHz
Bit depth : 24 bits
Compression mode : Lossy
Stream size : 1.15 GiB (26%)
Title : DTS
Language : English
Default : Yes
Forced : No

Menu
00:00:00.000 : en:00:00:00.000
00:06:20.046 : en:00:06:20.046
00:19:32.588 : en:00:19:32.588
00:21:44.345 : en:00:21:44.345
00:27:28.814 : en:00:27:28.814
00:29:36.692 : en:00:29:36.692
00:37:08.643 : en:00:37:08.643
00:46:51.142 : en:00:46:51.142
00:59:11.590 : en:00:59:11.590
01:01:09.708 : en:01:01:09.708
01:04:42.796 : en:01:04:42.796
01:06:13.219 : en:01:06:13.219
01:09:44.931 : en:01:09:44.931
01:19:05.532 : en:01:19:05.532
01:26:59.548 : en:01:26:59.548
01:35:58.127 : en:01:35:58.127

Screenshot:

Sign up via clicking banner and a file link to creat a premium account.Then Get the access to protected links.

ExtMatrix Download Links

Before.Midnight.2013.720p.BluRay.x264-SPARKS.idx
Before.Midnight.2013.720p.BluRay.x264-SPARKS.mkv
Before.Midnight.2013.720p.BluRay.x264-SPARKS.sub